#TITLE:Home Sweet Home (reborn);
#SUBTITLE:;
#ARTIST:Home Made Kazoku;
#TITLETRANSLIT:;
#SUBTITLETRANSLIT:;
#ARTISTTRANSLIT:;
#CREDIT:ZarroTsu Taimat;
#BANNER:Hame_sweet_home_(reborn)-banner.bmp;
#BACKGROUND:Hame_sweet_home_(reborn)-bg.bmp;
#LYRICSPATH:;
#CDTITLE:ZT-Logo.bmp;
#MUSIC:Home_sweet_home_(reborn).mp3;
#OFFSET:0.000;
#SAMPLESTART:69.840;
#SAMPLELENGTH:13.000;
#SELECTABLE:YES;
#BPMS:0.000=55.440,14.000=110.880,304.000=55.440,306.000=110.880,368.500=55.440,384.500=110.880;
#STOPS:41.000=0.100
,58.000=0.100
,83.500=0.050
,111.000=0.050
,113.000=0.050
,137.000=0.100
,146.500=0.100
,178.500=0.100
,207.500=0.100
,208.000=0.200
,208.500=0.200
,209.000=0.200
,232.000=0.100
,238.500=1.100
,271.000=2.300
,274.000=0.100
,298.000=0.100
,324.000=0.100
,334.750=0.200
,335.000=0.150
,335.250=0.100
,335.500=0.100
,335.750=0.150
,336.000=0.200
,368.500=0.100
,379.500=0.100
,402.500=0.100
,418.500=0.100
;
#BGCHANGES:;
// cache tags:
#FIRSTBEAT:0.333;
#LASTBEAT:448.250;
#SONGFILENAME:Songs/nhac/Home_sweet_home_(reborn)[ZarroTsu]/Home_sweet_home_(reborn).sm;
#HASMUSIC:1;
#HASBANNER:1;
#MUSICLENGTH:269.980;
// end cache tags

//---------------dance-single - ----------------
#NOTES:
     dance-single:
     :
     Beginner:
     3:
     0.140,0.228,0.004,0.111,0.015,234.000,1.000,30.000,0.000,0.000:
0000
1000
0000
0000
0000
0000
0000
0010
0000
0000
0000
0000
,
0000
0001
0000
0000
0000
0000
0000
1000
0000
0000
0000
0000
,
0000
0010
0000
0000
0000
0000
0000
0001
0000
0000
0000
0000
,
0000
0000
0000
0000
,
1000
0000
1000
0000
,
0001
0000
0100
0000
,
1000
0000
0010
0000
,
0001
0000
0100
0000
,
1000
0000
0010
0200
,
0300
0001
0000
0000
0000
0000
0020
0000
,
0030
1000
0000
0000
0000
0000
1000
0000
,
0000
0010
0000
0001
,
0000
0100
0000
2000
,
3000
0001
0000
0010
,
0000
0100
0000
1000
,
0000
0100
0000
0010
,
0000
0001
0000
0002
,
0003
0200
0300
0000
,
0010
0000
0100
0000
,
1000
0000
0100
0000
,
0010
0000
0001
0000
,
1001
0000
0010
0000
,
0100
0000
1000
0000
,
0001
0000
0010
0000
,
0100
0000
1000
0020
,
0030
0100
0000
0001
,
0000
0010
0000
1000
,
0000
0100
0000
0002
,
0003
2000
3000
0010
,
0000
0001
0000
0100
,
0000
1000
0000
0010
,
0000
0001
0000
0100
,
0000
1000
0000
0200
,
0300
0010
0000
0000
0000
0000
0002
0000
,
0003
0010
0000
0000
0000
0000
0100
0000
,
0000
1000
0000
0000
,
0000
0001
0000
0000
,
0100
0000
0001
0000
,
0010
0000
1000
0000
,
0100
0000
0001
0000
,
0010
0000
1000
0000
,
0100
0000
0010
0000
,
0001
0000
0010
0000
,
0100
0000
1000
0000
,
0010
0000
0100
0000
,
0001
0000
0100
0000
,
0010
0000
1000
0000
,
0100
0000
0010
0000
,
0001
0000
0010
0000
,
0100
0000
1000
0000
,
0010
0000
0100
0000
,
0001
0000
0000
0020
0000
0030
0000
0000
,
0000
0000
0001
0000
,
1000
0000
0010
0000
,
0100
0000
1000
0000
,
0010
0000
0100
0000
,
0001
0000
0000
0000
0020
0000
0030
0100
,
0000
0000
0000
0000
2000
0000
3000
0100
,
0000
0010
0000
0001
,
0000
0100
0000
0000
,
1000
0000
0100
0000
,
0010
0000
0001
0000
,
0100
0000
0010
0000
,
1000
0000
0100
0000
,
0010
0000
0001
0000
,
0100
0000
0010
0000
,
1000
0000
0010
0000
,
0100
0000
0001
0000
,
2000
0000
3000
0010
0000
0000
0000
0000
,
0001
0000
0010
0000
,
0100
0000
1000
0000
,
1000
0000
0100
0000
,
0010
0000
0001
0000
,
0002
0000
0003
0010
0000
0000
0000
0000
,
0200
0000
0300
1000
0000
0000
0010
0000
,
0000
0100
0000
0001
,
0000
0000
0000
0000
,
0001
0000
1000
0000
,
0010
0000
0000
0000
0200
0000
0300
0010
,
0000
0100
0000
0001
,
0000
0000
1000
0000
0020
0000
0030
0100
,
0000
1000
0000
0001
,
0000
0000
0010
0000
0200
0000
0300
1000
,
0000
0010
0000
0000
,
0000
0001
0000
0000
0000
0010
0000
0000
,
0000
0100
0000
0000
0000
1000
0000
0000
,
0000
1000
0000
0000
0000
0100
0000
0000
,
0000
0010
0000
0000
0000
0001
0000
0000
,
0000
0020
0000
0030
0100
0000
0000
0000
,
0000
2000
0000
3000
0100
0000
0000
0001
,
0000
0000
0000
0010
0000
0000
0000
0100
,
0000
0000
0000
1000
0000
0000
0000
0000
,
0000
0001
0100
0010
,
1000
0100
0010
0001
,
0100
0000
0020
0000
0030
0100
0000
0000
0000
0000
2000
0000
3000
0001
0000
0000
,
0000
0001
0010
0100
,
1000
0020
0000
0030
0001
0000
0000
0010
,
0000
0000
0000
0100
0000
0000
0000
1000
,
0000
0000
0000
0100
0000
0000
0000
0010
,
0000
0000
0000
0001
0000
0000
0000
0001
,
0000
0020
0000
0030
0100
0000
0000
1000
,
0000
0000
0000
0100
0000
0000
0000
0010
,
0000
0000
0000
0001
0000
0000
0000
0100
,
0000
0000
0000
0010
0000
0000
0000
1000
,
0000
0020
0000
0030
0001
0000
0000
0001
,
0000
0000
0000
0010
0000
0000
0000
0100
,
0000
0000
0000
1000
0000
0000
0000
1000
,
0000
0000
0000
0100
0000
0000
0000
0010
,
0000
0002
0000
0003
0010
0000
0000
0010
,
0000
0000
0000
0100
0000
0000
0000
1000
,
0000
0000
0000
0100
0000
0000
0000
0010
,
0000
0000
0002
0000
0003
0020
0030
0200
,
0000
0300
0000
0000
0000
0000
0000
0000
0000
0000
0000
0000
0000
0000
0000
0000
0000
0000
0000
0000
0000
0000
0000
0000
0000
0000
0000
0000
0000
0000
0000
0000
;

//---------------dance-single - ----------------
#NOTES:
     dance-single:
     :
     Easy:
     5:
     0.203,0.270,0.074,0.119,0.022,332.000,20.000,32.000,0.000,0.000:
0000
1000
0000
0000
0100
0000
0000
0010
0000
0000
0000
0000
,
0000
0001
0000
0000
0010
0000
0000
1000
0000
0000
0000
0000
,
0000
0010
0000
0000
1000
0000
0000
0001
0000
0000
0000
0000
,
0000
0000
0000
1000
,
1000
1000
1000
0000
,
0001
0010
0100
0000
,
1000
0100
0010
0000
,
0001
0010
0100
0000
,
1000
0100
0010
0201
,
0300
0001
0000
0000
0000
0000
1020
0000
,
0030
1000
0000
0000
0000
0000
1000
0000
,
0100
0010
0000
0001
,
0010
0000
0000
0000
0100
0000
0000
0000
0000
0000
0000
0000
2000
0000
0000
0010
,
3000
0001
0000
0010
,
1000
0100
0000
1000
,
0001
0100
0000
0010
,
0100
0001
0000
0002
,
0003
0200
0300
0000
,
0010
0001
0100
0000
,
1000
0010
0100
0000
,
0010
0000
1000
0000
0001
0010
0100
1000
,
1001
0000
0010
0001
,
0100
0000
1000
0100
,
0001
0000
0010
1000
,
0100
0000
1000
0020
,
0030
0100
0010
0001
,
0000
0010
0100
1000
,
0000
0100
0010
0002
,
0003
2000
3000
0010
,
0000
0001
0010
0100
,
0000
1000
0100
0010
,
0000
0001
0010
0100
,
0000
1000
0001
0210
,
0300
0010
0000
0000
0000
0000
0012
0000
,
0003
0010
0000
0000
0000
0000
0100
0000
,
0010
1000
0000
0010
,
1000
0001
0000
0000
,
0100
0010
0001
0000
,
0010
0100
1000
0000
,
0100
0010
0001
0000
,
0010
0100
1000
0000
,
0100
0001
0010
0000
,
0001
1000
0010
0000
,
0100
0001
1000
0000
,
0010
1000
0100
0000
,
0001
0010
0100
0000
,
0010
0100
1000
0000
,
0100
0010
0010
0000
,
0001
0100
0010
0000
,
0100
0010
1000
0000
,
0010
1000
0100
0000
,
0001
0000
0100
0020
0000
0030
0000
0000
,
0000
0000
0001
0100
,
1000
0000
0010
0001
,
0100
0000
1000
0100
,
0010
0000
0100
0010
,
0001
0000
0000
0000
0120
0000
0030
0100
,
0000
0000
0000
0000
2100
0000
3000
0100
,
0000
0010
1000
0001
,
0010
0100
0000
0000
,
1000
0010
0100
0000
,
0010
1000
0001
0000
,
0100
0001
0010
0000
,
1000
0010
0100
0000
,
0010
1000
0001
0000
,
0100
0001
0010
0000
,
1000
0100
0010
0000
,
0100
0010
0001
0000
,
2010
0000
3000
0010
0000
0000
0000
0000
,
0001
1000
0010
0000
,
0100
0001
1000
0000
,
1000
0010
0100
0000
,
0010
0100
0001
0000
,
0012
0000
0003
0010
0000
0000
0000
0000
,
1200
0000
0300
1000
0000
0000
0010
0000
,
1000
0100
0010
0001
,
0200
0000
0300
0000
,
0001
0100
1000
0000
,
0010
0000
0001
0000
0210
0000
0300
0010
,
0000
0100
0010
0001
,
0000
0000
1000
0000
0120
0000
0030
0100
,
0000
1000
0100
0001
,
0000
0000
0010
0000
1200
0000
0300
1000
,
0000
0010
0000
0000
,
0000
0001
0000
0100
0000
0010
0000
0000
,
0000
0100
0000
0010
0000
1000
0000
0000
,
0000
1000
0000
0001
0000
0100
0000
0000
,
0000
0010
0000
1000
0000
0001
0000
0000
,
0000
0120
0000
0030
0100
0000
0000
0000
,
0000
2100
0000
3000
0100
0000
0000
0001
,
0000
1000
0000
0010
0000
0000
0000
0100
,
0000
0001
0000
1000
0000
0000
0000
0000
,
0000
0000
0001
0010
0100
0000
0010
0100
,
1000
0000
0100
0001
0010
0000
0001
0010
,
0100
0000
0020
0000
0030
0100
0000
0000
0000
0000
2000
0000
3000
0001
0000
0000
,
0000
0000
0001
0100
0010
0000
0100
0010
,
1000
0021
0000
0030
0001
0000
0000
0010
,
0000
0001
0000
0100
0000
0000
0000
1000
,
0000
0010
0000
0100
0000
0000
0000
0010
,
0000
0100
0000
0001
0000
0000
0000
0001
,
0000
0120
0000
0030
0100
0000
0000
1000
,
0000
0010
0000
0100
0000
0000
0000
0010
,
0000
0100
0000
0001
0000
0000
0000
0100
,
0000
0001
0000
0010
0000
0000
0000
1000
,
0000
0021
0000
0030
0001
0000
0000
0001
,
0000
0100
0000
0010
0000
0000
0000
0100
,
0000
0010
0000
1000
0000
0000
0000
1000
,
0000
0001
0000
0100
0000
0000
0000
0010
,
0000
0012
0000
0003
0010
0000
0000
0010
,
0000
0001
0000
0100
0000
0000
0000
1000
,
0000
0010
0000
0100
0000
0000
0000
0010
,
0000
1000
0002
0000
0003
0020
0030
2200
,
0000
3300
0000
0000
0000
0000
0000
0000
0000
0000
0000
0000
0000
0000
0000
0000
0000
0000
0000
0000
0000
0000
0000
0000
0000
0000
0000
0000
0000
0000
0000
0000
;

//---------------dance-single - ----------------
#NOTES:
     dance-single:
     :
     Medium:
     6:
     0.313,0.373,0.111,0.152,0.035,520.000,30.000,41.000,0.000,0.000:
0000
1000
0000
0100
0100
0000
0010
0010
0000
0000
0000
0000
,
0000
0001
0000
0010
0010
0000
1000
1000
0000
0000
0000
0000
,
0000
0010
0000
1000
1000
0000
0001
0001
0000
0000
0000
0000
,
0000
2000
0000
3000
0002
0000
0003
0000
0000
1000
0000
0000
,
1000
1000
1000
0010
,
0001
0010
0100
0010
,
1000
0100
0010
0100
,
0001
0010
0100
0010
,
1000
0100
0010
0201
,
0300
0001
0010
0000
0100
0000
1020
0000
,
0030
1000
0000
0000
0000
0000
1000
0000
,
0100
0010
0001
0001
,
0010
0000
0000
0000
0100
0000
0000
0000
1000
0000
0000
0000
2000
0000
0000
0010
,
3000
0001
0001
0000
0001
0000
0010
0000
,
1000
0100
0010
1000
,
0001
0100
1000
0010
,
0100
0001
0100
1002
,
0003
0210
0300
1000
,
0010
0001
0100
0010
,
1000
0010
0100
0001
,
0010
0000
1000
0000
0001
0010
0100
1000
,
1001
0100
0010
0001
,
0100
0010
1000
0100
,
0001
1000
0010
1000
,
0100
0000
0001
0000
1000
0000
0020
0030
,
1001
0100
0010
0001
,
0001
0010
0100
1000
,
1000
0100
0010
0102
,
0103
2010
3010
0010
,
0001
0001
0010
0100
,
1000
1000
0100
0010
,
0001
0001
0010
0100
,
1000
1000
0001
0210
,
0300
0010
0001
0000
0100
0000
0012
0000
,
0003
0010
0000
0000
0001
0000
0100
0000
,
0010
1000
0001
0010
,
1000
0000
0001
0000
1000
0001
0100
0000
,
0100
0010
0001
0010
,
0010
0100
1000
0100
,
0100
0010
0001
0100
,
0010
0100
1000
0010
,
0100
0001
0010
1000
,
0001
1000
0010
0001
,
0100
0001
1000
0100
,
0010
1000
0100
0010
,
0001
0010
0100
1000
,
0010
0100
1000
0001
,
0100
0010
0010
0100
,
0001
0100
0010
0010
,
0100
0010
1000
0100
,
0010
1000
0100
0001
,
0001
0000
0000
0000
0000
0000
0100
0000
0000
0020
0000
0000
0000
0000
0000
0030
0000
0000
0000
0000
1000
0000
0000
0000
,
0100
0010
0001
0000
0001
0010
0100
0000
,
1000
0100
0010
0000
0010
0001
0001
0000
,
0100
1000
0100
0000
1000
0010
0100
0000
,
0010
1000
0010
0000
0100
0001
0010
0000
,
0001
1000
0010
0000
0120
0000
0030
0100
,
1000
0000
0010
0000
2100
0000
3000
0100
,
0000
0000
0010
0000
1000
0100
0001
0000
,
0010
0001
0100
0000
2002
3000
0003
0000
,
1000
0100
0010
0000
0100
0000
0001
0000
,
0010
0100
1000
0000
0001
0000
1000
0000
,
0100
0010
0001
0000
0010
0000
0100
0000
,
1000
0100
0010
0000
0100
0000
0010
0000
,
0010
0100
1000
0000
0001
0000
1000
0000
,
0100
0010
0001
0000
0010
0000
0001
0000
,
1000
0010
0100
0000
0010
0000
0100
0000
,
0100
0000
0001
0000
0010
0000
1000
0000
0001
0000
0010
0000
0200
0300
0000
0000
,
2010
0000
3000
0010
0000
0000
0010
0000
,
0001
0100
1000
0000
0010
0001
1000
0000
,
0100
0010
0001
0000
1000
0100
0001
0000
,
1000
0100
0010
0000
0100
0010
1000
0000
,
0010
0001
0100
0000
0001
1000
0100
0000
,
0012
0000
0003
0010
0100
0000
0001
0000
,
1200
0000
0000
0000
0000
0000
0000
0000
0300
0000
0000
0000
1000
0000
0000
0000
0002
0003
0000
0000
0000
0000
0000
0000
0010
0000
0000
0000
0000
0000
0000
0000
,
1000
0100
0010
0001
,
0020
0000
0000
0030
0000
0200
0000
0300
1001
0000
0000
0000
0000
0000
0000
0000
,
0001
0010
0100
0000
1000
0100
0001
0000
,
0010
0100
0001
0000
0210
0000
0300
0010
,
0000
0000
0100
0001
0010
0000
0001
1000
,
0100
0000
1000
0000
0120
0000
0030
0100
,
0000
0000
1000
0010
0100
0000
0001
1000
,
0100
0000
0010
0000
1200
0000
0300
1000
,
0000
0000
0000
0000
0010
0000
0000
0000
0000
0000
1000
1000
0100
0010
0100
0010
,
0001
0001
0000
0100
0000
0010
0010
0001
,
0000
0100
0000
0010
0000
1000
1000
0100
,
0000
1000
0000
0001
0000
0100
0100
0001
,
0000
0010
0000
1000
0000
0001
0001
1000
,
0000
0120
0000
0030
0100
1000
0000
0010
,
0000
2100
0000
3000
0100
0010
0000
0001
,
0000
1000
1000
0010
0000
0001
0001
0100
,
0000
0010
0010
1000
0000
1000
0100
0010
,
0001
0000
0001
0010
0100
1000
0010
0100
,
1000
0010
0100
0001
0010
1000
0001
0010
,
0100
0000
0020
0000
0030
0100
1000
0000
0010
0000
2000
0000
3000
0001
0100
0000
,
0010
0000
0001
0100
0010
0001
0100
0010
,
1000
0021
0000
0030
0001
0100
0000
0010
,
0000
0001
0100
0100
0000
0010
0000
1000
,
0000
0010
0100
0100
0000
0001
0000
0010
,
0000
0100
0001
0001
0000
1000
0000
0001
,
0000
0120
0000
0030
0100
0000
0000
1000
,
0000
0010
0000
0100
0100
0101
0000
0010
,
0000
0100
0000
0001
0001
1001
0000
0100
,
0000
0001
0000
0010
0010
0110
0000
1000
,
0000
0021
0000
0030
0001
1000
0000
0001
,
0000
0100
0000
0010
0000
0001
0010
0100
,
0000
0010
0000
1000
0000
0100
0010
1000
,
0000
0001
0000
0100
0000
1000
0100
0010
,
0000
0012
0000
0003
0010
1000
0100
0010
,
0000
0001
0010
0100
0000
0001
0100
1000
,
0000
0010
0001
0100
0000
1000
0100
0010
,
0000
0000
0000
0000
0000
0000
0000
0000
0000
0000
0000
0000
0002
0000
0000
0000
0000
0000
0200
0000
0000
0003
0000
0000
0300
0000
0000
0000
0000
0000
0020
0000
0000
0000
0000
0000
0032
0000
0000
0000
0003
0000
2200
0000
0000
0000
0000
0000
,
0000
3300
0000
0000
0000
0000
0000
0000
0000
0000
0000
0000
0000
0000
0000
0000
0000
0000
0000
0000
0000
0000
0000
0000
0000
0000
0000
0000
0000
0000
0000
0000
;

//---------------dance-single - ----------------
#NOTES:
     dance-single:
     :
     Hard:
     8:
     0.494,0.664,0.119,0.185,0.113,852.000,32.000,50.000,0.000,2.000:
0000
0000
1000
0000
0000
0000
0100
0000
0100
0000
0000
0000
0010
0000
0010
0200
0000
0000
0000
0000
0000
0000
0000
0000
,
0000
0000
0000
0000
0001
0000
0000
0000
0000
0000
0000
0000
0010
0000
0000
0000
0010
0000
0000
0000
0000
0000
0000
0000
1000
0000
0000
0000
2000
0000
0300
0000
3000
0020
0000
0000
0002
0000
0000
0000
0000
0000
0033
0000
0000
0000
0000
0000
,
0000
0010
0100
1000
1000
0010
0001
0001
0000
0000
0000
0000
,
0000
0000
2000
0000
0100
0010
3000
0000
0001
0010
0000
0100
0000
2000
0000
0000
3000
0000
1000
0000
0000
0000
0000
0000
,
1000
0000
1000
0000
1000
0000
0010
0100
,
0001
0010
0010
0001
0100
1000
0010
0100
,
1000
0010
0100
0001
0010
0010
0100
0100
,
0001
1000
0010
0001
0100
0010
0010
0100
,
1000
1000
0100
0100
0010
0010
0201
0000
,
0301
0001
0010
0000
0100
0000
1020
0000
,
1030
1000
0100
0000
0010
0100
1000
0001
,
0100
0100
0010
1000
0001
0010
0001
0001
,
0010
0000
0100
0000
0100
0000
0010
0000
1000
0000
1000
0000
2000
0000
0000
0010
,
3000
0000
0001
0000
0001
0000
1000
0000
0001
1000
0010
0000
0010
0000
0000
1000
,
0000
0000
0000
0000
0001
0000
0000
0100
0000
0000
1000
0000
0000
0000
0010
0000
0000
0000
0000
0000
0000
0000
0000
0000
1000
0000
0000
0000
0100
0000
0000
0000
,
0001
0010
0100
0100
1000
0010
0010
1000
,
0100
0001
0001
1000
0100
0001
1002
0000
,
1003
0100
0210
0000
0310
0100
1000
0100
,
0010
0001
0001
0100
0100
0001
0010
0010
,
1000
1000
0010
0010
0100
1000
0001
0100
,
0010
0010
1000
1000
0001
0010
0100
1000
,
2002
3003
0100
0010
0010
0001
0001
0100
,
0100
0010
0010
1000
1000
0100
0100
0001
,
0001
1000
1000
0010
0010
1000
1000
0100
,
0100
0001
0001
1000
1000
0010
0020
0030
,
1001
0000
0100
0100
0010
0010
0001
0001
,
0001
0001
0010
0010
0100
0100
1000
1000
,
1000
1000
0100
0100
0010
0010
0102
0010
,
0103
0000
2010
0100
3010
0000
0010
0100
,
0001
0010
0001
0001
0010
1000
0100
0100
,
1000
0010
1000
0001
0100
1000
0010
0100
,
0001
0010
0001
0001
0010
1000
0100
0100
,
1000
0010
1000
0001
0001
1000
0210
0000
,
0310
0010
0001
0000
0100
0000
0012
0000
,
0013
0010
1000
0000
0001
0001
0100
0010
,
0010
0100
1000
1000
0001
0001
0010
0010
,
1000
0100
0001
1000
1000
0001
0000
1000
,
0100
0010
0010
0100
0001
0001
0010
0010
,
0010
0100
0100
1000
1000
0010
0100
0100
,
0100
0001
0010
0010
0001
0100
0100
1000
,
0010
0010
0100
0100
1000
0001
0010
0010
,
0100
0100
0001
1000
0010
0010
1000
0100
,
0001
0001
1000
0010
0010
0100
0001
1000
,
0100
0010
0001
0100
1000
0001
0100
0010
,
0010
0100
1000
1000
0100
0100
0000
0010
,
0001
0001
0010
0100
0100
0010
1000
1000
,
0010
0100
0100
0010
1000
0001
0001
0100
,
0100
0010
0010
1000
0010
0100
0100
0010
,
0001
0001
0100
0100
0010
0010
0010
1000
,
0100
0100
0010
0010
1000
0001
0100
0100
,
0010
0010
1000
1000
0100
0100
0001
0010
,
0001
0000
0000
0001
0000
0000
0100
0000
0000
0020
0000
0000
0000
0000
0000
0030
0000
0000
0000
0000
2000
0000
0000
0000
,
0200
3020
0331
0000
0001
0010
0100
1000
,
1000
0100
0010
0010
0010
0001
0001
0010
,
0100
1000
0100
0100
1000
0010
0100
0001
,
0010
1000
0010
1000
0100
0001
0010
0100
,
0001
1000
0010
0001
0120
0000
0130
0100
,
1000
0000
0010
0000
2100
0000
3100
0100
,
0001
0000
0010
0100
1000
0100
0001
0001
,
0010
0001
0100
0100
2002
3000
0003
0000
,
1000
0100
0010
0001
0100
1000
0001
0010
,
0010
0100
1000
0100
0001
0100
1000
0010
,
0100
0010
0001
1000
0010
0100
0100
0010
,
1000
0100
0010
0001
0100
0010
0010
1000
,
0010
0100
1000
0010
0001
0100
1000
0001
,
0100
0010
0001
1000
0010
0100
0001
0010
,
1000
0010
0100
0001
0010
1000
0100
0010
,
0100
0000
0001
0000
0010
0000
1000
0000
0001
0000
0010
0000
0200
0300
0000
0000
,
2010
0000
3010
0010
0100
0000
0010
0001
,
0001
0100
1000
0100
0010
0001
1000
0100
,
0100
0010
0001
0001
1000
0100
0001
1000
,
1000
0100
0010
0001
0100
0010
1000
1000
,
0010
0001
0100
0010
0001
1000
0100
0100
,
0012
0000
0013
0010
0100
0000
0001
0000
,
1200
0000
0000
0000
0000
0000
0000
0000
1300
0000
0000
0000
1000
0000
0000
0000
0002
0003
0000
0000
0000
0000
0000
0000
0010
0000
0000
0000
0100
0000
0000
0000
,
1000
0100
0100
0010
0010
0001
0001
0010
,
0010
0000
0000
0000
0000
0000
0000
0000
0001
0000
0000
0000
0000
0000
0000
0000
1000
0000
0000
0000
0000
0000
0000
0000
0100
0000
0000
0000
0000
0000
0000
0000
0010
0000
0000
0000
0000
0000
0000
0000
0001
0000
0000
0000
0000
0000
0000
0000
0000
0000
0000
0000
0000
0000
0000
0000
0000
0000
0000
0000
2000
0000
0000
0000
0000
0000
0200
0000
0000
0000
0000
0000
3000
0000
0000
0000
0000
0000
0320
0000
0000
0000
0000
0000
0000
0000
0000
0000
0000
0000
0030
0000
0000
0000
0000
0000
1001
0000
0000
0000
0000
0000
0000
0000
0000
0000
0000
0000
0000
0000
0000
0000
0000
0000
0000
0000
0000
0000
0000
0000
0000
0000
0000
0000
0000
0000
0000
0000
0000
0000
0000
0000
0000
0000
0000
0000
0000
0000
0000
0000
0000
0000
0000
0000
0000
0000
0000
0000
0000
0000
0000
0000
0000
0000
0000
0000
0000
0000
0000
0000
0000
0000
0000
0000
0000
0000
0000
0000
0000
0000
0000
0000
0000
0000
0000
0000
0000
0000
0000
0000
0000
0000
0000
0000
0000
0000
0000
0000
0000
0000
0000
0000
,
0001
0010
0100
1000
1000
0100
0001
0001
,
0010
0100
0001
1000
0210
0000
0310
0010
,
1000
0010
0100
0001
0010
0100
0001
1000
,
0100
0001
1000
0000
0120
0000
0130
0100
,
0001
0000
1000
0010
0100
0010
0001
1000
,
0100
1000
0010
0000
1200
0000
1300
1000
,
0100
0000
0000
0000
0010
0000
0001
0000
0000
0000
1000
1000
0100
0010
0100
0010
,
0001
0001
0010
0100
1000
0010
0010
0001
,
0010
0100
1000
0010
0100
1000
1000
0100
,
0001
1000
0100
0001
0010
0100
0100
0001
,
1000
0010
0100
1000
0010
0001
0001
1000
,
0000
0120
0000
0130
0100
1000
0000
0010
,
0000
2100
0000
3100
0100
0010
0000
0001
,
0010
1000
1000
0010
0100
0001
0001
0100
,
0001
0010
0010
1000
0001
1000
0100
0010
,
0001
0000
0000
0000
0001
0001
0010
0010
0100
0100
1000
1000
0010
0010
0100
0100
,
1000
1000
0010
0010
0100
0100
0001
0001
0010
0010
1000
1000
0001
0001
0010
0010
,
0100
0100
0120
0000
0130
0100
1000
0000
0010
0000
2001
0000
3001
0001
0100
0000
,
0010
0010
1000
1000
0001
0001
0100
0100
0010
0010
0001
0001
0100
0100
0010
0010
,
1000
1000
0021
0000
0000
0000
0031
0000
0001
0000
0100
0000
1000
0000
0010
0000
,
0010
0001
0100
0100
0001
0010
0010
1000
,
0100
0010
0100
0100
1000
0001
0010
0010
,
0100
0100
0001
0001
0010
1000
0100
0001
,
1000
0120
0000
0130
0100
0000
0000
1000
,
0100
0010
0001
0100
0100
0101
0000
0010
,
1000
0100
0010
0001
0001
1001
0000
0100
,
0010
0001
1000
0010
0010
0110
0000
1000
,
0100
0021
0000
0031
0001
1000
0000
0001
,
1000
0100
0001
0010
0100
0001
0010
0100
,
0010
0010
0100
1000
1000
0100
0010
1000
,
0001
0001
0010
0100
0010
1000
0100
0010
,
1000
0012
0000
0013
0010
1000
0100
0010
,
0001
0001
0010
0100
1000
0001
0100
1000
,
0100
0010
0001
0100
0010
1000
0100
0010
,
0001
0000
0000
0000
0002
0000
0200
0003
0300
0000
0020
0000
0031
0000
2200
0000
,
0000
3300
0000
0000
0000
0000
0000
0000
0000
0000
0000
0000
0000
0000
0000
0000
0000
0000
0000
0000
0000
0000
0000
0000
0000
0000
0000
0000
0000
0000
0000
0000
;

//---------------dance-single - ----------------
#NOTES:
     dance-single:
     :
     Challenge:
     13:
     0.907,1.000,0.141,0.226,1.000,1615.000,38.000,61.000,0.000,6.000:

0000
0000
0000
0000
1000
0000
0000
0000
0000
0100
0000
0000
0100
0000
0000
0000
0100
0000
0000
0000
0000
0010
0000
0000
0010
0000
0000
0000
0010
0000
0200
0000
0000
0000
0000
0000
0000
0000
0000
0000
0000
0000
0000
0000
0000
0000
0000
0000
,
0000
0000
0000
0000
0001
0000
0000
0000
0000
0010
0000
0000
0010
0000
0000
0000
0010
0000
0000
0000
0000
1000
0000
0000
1000
0000
0000
0000
2000
0000
0300
0000
3000
0020
0000
0000
0002
0000
0000
0000
0000
0000
0033
0000
0000
0000
0000
0000
,
0000
0000
0000
0000
0000
0000
0000
0000
0000
0000
0000
0000
0000
0000
0000
0000
0010
0000
0000
0000
0000
0000
0000
0000
0000
0000
0000
0000
0000
0000
0000
0000
0100
0000
0000
0000
0000
0000
0000
0000
0000
0000
0000
0000
0000
0000
0000
0000
1000
0000
0000
0000
0000
0000
0000
0000
0000
0000
0000
0000
0000
0000
0000
0000
1000
0000
0000
0000
0000
0000
0000
0000
0000
0000
0000
0000
0000
0000
0000
0000
0010
0000
0000
0000
0000
0000
0000
0000
0000
0000
0000
0000
0000
0000
0000
0000
0001
0000
0000
0000
0000
0000
0000
0000
0000
0000
0000
0000
0000
0000
0000
0000
0001
0000
0000
0000
0000
0000
0000
0000
1000
0000
0000
0000
0000
0000
0100
0000
0000
0000
0000
0000
0010
0000
0000
0000
0000
0000
0000
0000
0000
0000
0000
0000
0001
0000
0000
0000
0000
0000
0000
0000
0000
0000
0000
0000
1000
0000
0000
0000
0000
0000
0000
0000
0000
0000
0000
0000
0100
0000
0000
0000
0000
0000
0000
0000
0000
0000
0000
0000
0010
0000
0000
0000
0000
0000
0010
0000
0000
0000
0000
0000
,
0001
0000
2000
0000
0100
0010
3000
0000
0001
0010
0000
0100
0000
2000
0000
0000
3000
0000
2000
0000
0000
0000
0000
0000
,
0200
0000
3000
0000
0020
0000
0300
0000
0002
0000
0033
0000
0010
1000
0100
0010
,
0001
0001
0010
0100
0010
1000
0001
0100
0100
0010
1000
0100
0010
0001
0100
0010
,
1000
0100
0010
1000
0100
0001
0001
0010
0010
0100
0010
1000
0100
0001
0100
0010
,
0001
0100
1000
1000
0010
0001
0001
0010
0100
0100
0010
1000
0010
0001
0100
0010
,
1000
0100
1000
1000
0100
0001
0100
0010
0010
0100
0010
1000
0201
0000
0000
0000
,
0301
1000
0010
0010
0100
0100
1020
0000
,
1030
0000
1000
0000
0100
0000
0010
0001
0010
0010
0100
0100
1000
1000
0001
0001
,
0100
0010
0100
0100
0010
1000
1000
0001
0001
0010
0010
0100
0001
1000
0001
0001
,
0010
0010
0100
0100
0100
1000
0010
0001
1000
0010
1000
0100
2000
0000
0000
0001
,
3000
0010
0001
0100
0001
1000
1000
0001
0001
0010
0010
0100
0010
1000
0000
0001
,
0000
0000
0010
0000
0001
0000
0000
0100
0000
0000
1000
0000
0000
0000
0001
0000
0000
0000
0010
0000
0000
0000
0100
0000
1000
0000
1000
0000
0100
0000
0001
0000
,
0001
0010
0010
0100
0100
1000
0100
0001
1000
0010
0010
0100
0010
1000
1000
0001
,
0100
0010
0001
0100
0001
1000
1000
0001
0100
0010
0001
0100
1002
0000
0010
0000
,
1003
0000
0100
0000
0210
0000
0001
0000
0310
0000
0100
0001
1000
0010
0100
0100
,
0010
1000
0001
0001
0001
0010
0100
0100
0100
1000
0001
0001
0010
0010
0010
0100
,
1000
1000
1000
0001
0010
0010
0010
0100
0100
1000
1000
0001
0001
0010
0100
0100
,
0010
1000
0010
0001
1000
0010
1000
0100
0001
1000
0010
0001
0100
0010
1000
0100
,
2002
0000
3003
0001
0100
0010
0010
0100
0010
1000
0001
0001
0001
0010
0100
0100
,
0100
1000
0010
0001
0010
0010
1000
0100
1000
1000
0100
0001
0100
0010
0001
0100
,
0001
1000
1000
0001
1000
0010
0010
0100
0010
1000
1000
0001
1000
0010
0100
0100
,
0100
1000
0001
0001
0001
0010
1000
0100
1000
1000
0010
0001
0020
0000
0030
0100
,
1001
1000
0000
0001
0100
0010
0100
0100
0010
1000
0010
0001
0001
0010
0001
0100
,
0001
1000
0001
0001
0010
0010
0010
0100
0100
1000
0100
0001
1000
0010
1000
0100
,
1000
1000
1000
0001
0100
0010
0100
0100
0010
1000
0010
0001
0102
0000
0010
0000
,
0103
0000
0001
0000
2010
0000
0100
0000
3010
0000
1000
0001
0010
0010
0100
0100
,
0001
1000
0010
0001
0001
0010
0001
0100
0010
1000
1000
0001
0100
0010
0100
0100
,
1000
1000
0010
0001
1000
0010
0001
0100
0100
1000
1000
0001
0010
0010
0100
0100
,
0001
1000
0010
0001
0001
0010
0001
0100
0010
1000
1000
0001
0100
0010
0100
0100
,
1000
1000
0010
0001
1000
0010
0001
0100
0001
1000
1000
0001
0210
0000
0000
0000
,
0310
0010
0001
0010
0100
1000
0012
0000
,
0013
0000
0010
0000
1000
0000
0010
0001
0001
0010
0001
0100
0100
1000
0010
0001
,
0010
0010
0100
0100
1000
1000
1000
0001
0001
0010
0001
0100
0010
1000
0010
0001
,
1000
0010
0100
0100
0001
1000
1000
0001
1000
0010
0001
0100
0000
1000
1000
0001
,
0100
0010
0010
0100
0010
1000
0100
0001
0001
0010
0001
0100
0010
1000
0010
0001
,
0010
0010
0100
0100
0100
1000
1000
0001
1000
0010
0010
0100
0100
1000
0100
0001
,
0100
0010
0001
0100
0010
1000
0010
0001
0001
0010
0100
0100
0100
1000
1000
0001
,
0010
0010
0010
0100
0100
1000
0100
0001
1000
0010
0001
0100
0010
1000
0010
0001
,
0100
0010
0100
0100
0001
1000
1000
0001
0010
0010
0010
0100
1000
1000
0100
0001
,
0001
0010
0001
0100
1000
1000
0010
0001
0010
0010
0100
0100
0001
1000
1000
0001
,
0100
0010
0010
0100
0001
1000
0100
0001
1000
0010
0001
0100
0100
1000
0010
0001
,
0010
0010
0100
0100
1000
1000
1000
0001
0100
0010
0100
0000
1000
0000
0010
0001
,
0001
0010
0001
0100
0010
1000
0100
0001
0100
0010
0010
0100
1000
1000
1000
0001
,
0010
0010
0100
0100
0100
1000
0010
0001
1000
0010
0001
0100
0001
1000
0100
0001
,
0100
0010
0010
0100
0010
1000
1000
0001
0010
0010
0100
0100
0100
1000
0010
0001
,
0001
0010
0001
0100
0100
1000
0100
0001
0010
0010
0010
0100
0010
1000
1000
0001
,
0100
0010
0100
0100
0010
1000
0010
0001
1000
0010
0001
0100
0100
1000
0100
0001
,
0010
0010
0010
0100
1000
1000
1000
0001
0100
0010
0100
0100
0001
1000
0010
0001
,
0001
0000
0000
0010
0000
0000
0001
0000
0000
0100
0000
0000
0100
0000
0000
1000
0000
0000
0020
0000
0000
0000
0000
0000
0000
0000
0000
0000
0000
0000
0030
0000
0000
0000
0000
0000
0000
0000
0000
0000
2000
0000
0000
0000
0000
0000
0000
0000
,
0200
0000
3020
0000
0331
0000
0000
0001
0001
0010
0010
0100
0100
1000
1000
0001
,
1000
0010
0100
0100
0010
1000
0010
0001
0010
0010
0001
0100
0001
1000
0010
0001
,
0100
0010
1000
0100
0100
1000
0100
0001
1000
0010
0010
0100
0100
1000
0001
0001
,
0010
0010
1000
0100
0010
1000
1000
0001
0100
0010
0001
0100
0010
1000
0100
0001
,
0001
0010
1000
0100
0010
1000
0001
0001
0120
0000
0000
0000
0130
0000
0100
0000
,
1000
0001
0010
0100
2100
0000
3100
0100
,
0001
0000
1000
0001
0010
0010
0100
0100
1000
1000
0100
0001
0001
0010
0001
0100
,
0010
1000
0001
0001
0100
0010
0100
0100
2002
0000
3000
0000
0003
0000
0010
0000
,
1000
0000
0100
0001
0010
0010
0001
0100
0100
1000
1000
0001
0001
0010
0010
0100
,
0010
1000
0100
0001
1000
0010
0100
0100
0001
1000
0100
0001
1000
0010
0010
0100
,
0100
1000
0010
0001
0001
0010
1000
0100
0010
1000
0100
0001
0100
0010
0010
0100
,
1000
1000
0100
0001
0010
0010
0001
0100
0100
1000
0010
0001
0010
0010
1000
0100
,
0010
1000
0100
0001
1000
0010
0010
0100
0001
1000
0100
0001
1000
0010
0001
0100
,
0100
1000
0010
0001
0001
0010
1000
0100
0010
1000
0100
0001
0001
0010
0010
0100
,
1000
1000
0010
0001
0100
0010
0001
0100
0010
1000
1000
0001
0100
0010
0010
0100
,
0100
0000
0000
0000
0000
0000
0000
0000
0000
0000
0000
0000
1000
0000
0000
0000
0000
0000
0000
0000
0000
0000
0000
0000
0001
0000
0000
0000
0000
0000
0000
0000
0000
0000
0000
0000
0001
0000
0000
0000
0000
0000
0000
0000
0000
0000
0000
0000
0010
0000
0000
0000
0000
0000
0000
0000
0000
0000
0000
0000
0010
0000
0000
0000
0000
0000
0000
0000
0000
0000
0000
0000
1000
0000
0000
0000
0000
0000
0000
0000
0000
0000
0000
0000
0100
0000
0000
0000
0000
0000
0000
0000
0000
0000
0000
0000
0001
0000
0000
0000
0000
0000
0000
0000
0000
0000
0000
0000
1000
0000
0000
0000
0000
0000
0000
0000
0000
0000
0000
0000
0010
0000
0000
0000
0000
0000
0000
0000
0000
0000
0000
0000
0000
0000
0000
0000
0000
0000
0000
0000
0000
0000
0000
0000
0200
0300
0000
0000
0000
0000
0000
0000
0000
0000
0000
0000
0000
0000
0000
0000
0000
0000
0000
0000
0000
0000
0000
0000
0000
0000
0000
0000
0000
0000
0000
0000
0000
0000
0000
0000
0000
0000
0000
0000
0000
0000
0000
0000
0000
0000
0000
0000
,
2010
0000
0000
0000
3010
0000
0010
0000
0100
0000
1000
0000
0010
0001
0001
0010
,
0001
0100
0100
1000
1000
0001
0100
0010
0010
0100
0001
1000
1000
0001
0100
0010
,
0100
0100
0010
1000
0001
0001
0001
0010
1000
0100
0100
1000
0001
0001
1000
0010
,
1000
0100
0100
1000
0010
0001
0001
0010
0100
0100
0010
1000
1000
0001
1000
0010
,
0010
0100
0001
1000
0100
0001
0010
0010
0001
0100
1000
1000
0100
0001
0100
0010
,
0012
0000
0013
0010
0100
1000
0001
0010
,
1200
0000
0000
0000
0000
0000
0000
0000
1300
0000
0000
0000
1000
0000
0000
0000
0002
0003
0000
0000
1000
0000
0001
0000
0010
0000
0010
0000
0100
0000
0100
0000
,
1000
1000
0100
0001
0100
0010
0010
0100
0010
1000
0001
0001
0001
0010
0010
0100
,
0010
0000
0000
0000
0000
0000
0000
0000
0001
0000
0000
0000
0000
0000
0000
0000
1000
0000
0000
0000
0000
0000
0000
0000
0100
0000
0000
0000
0000
0000
0000
0000
0010
0000
0000
0000
0000
0000
0000
0000
0001
0000
0000
0000
0000
0000
0000
0000
0000
0000
0000
0000
0000
0000
0000
0000
0000
0000
0000
0000
2000
0000
0000
0000
0000
0000
0200
0000
0000
0000
0000
0000
3000
0000
0000
0000
0000
0000
0320
0000
0000
0000
0000
0000
0000
0000
0000
0000
0000
0000
0030
0000
0000
0000
0000
0000
2002
0000
0000
0000
0000
0000
0000
0000
0000
0000
0000
0000
0000
0000
0000
0000
0000
0000
0000
0000
0000
0000
0000
0000
0000
0000
0000
0000
0000
0000
0000
0000
0000
0000
0000
0000
0000
0000
0000
0000
0000
0000
0000
0000
0000
0000
0000
0000
3013
0000
0000
0000
0000
0000
0000
0000
0000
0000
0000
0000
0000
0000
0000
0000
0000
0000
0000
0000
0000
0000
0000
0000
0100
0000
0000
0000
0000
0000
0000
0000
0000
0000
0000
0000
0001
0000
0000
0000
0000
0000
0000
0000
0000
0000
0000
0000
,
0001
0010
0010
0100
0100
1000
1000
0001
1000
0010
0100
0100
0001
1000
0001
0001
,
0010
0010
0100
0100
0001
1000
1000
0001
0210
0000
0000
0000
0310
0000
0010
0001
,
1000
0010
0010
0100
0100
1000
0001
0001
0010
0010
0100
0100
0001
1000
1000
0001
,
0100
0010
0001
0100
1000
1000
0000
0001
0120
0000
0000
0000
0130
0000
0100
0000
,
0001
0000
0100
0001
1000
0010
0010
0100
0100
1000
0010
0001
0001
0010
1000
0100
,
0100
1000
1000
0001
0010
0010
0000
0100
1200
0000
0000
0000
1300
0000
1000
0000
,
0100
0001
1000
0010
0010
0100
0001
1000
0000
0001
1000
0010
0100
0100
0100
1000
,
0001
0001
0001
0010
0010
0100
0100
1000
1000
0001
0010
0010
0010
0100
0001
1000
,
0010
0001
0100
0010
1000
0100
0010
1000
0100
0001
1000
0010
1000
0100
0100
1000
,
0001
0001
1000
0010
0100
0100
0001
1000
0010
0001
0100
0010
0100
0100
0001
1000
,
1000
0001
0010
0010
0100
0100
1000
1000
0010
0001
0001
0010
0001
0100
1000
1000
,
0000
0001
0120
0000
0000
0000
0130
0000
0100
0000
1000
0000
0100
0000
0010
0000
,
0001
0000
2100
0000
0000
0000
3100
0000
0100
0000
0010
0000
1000
0001
0001
0010
,
0010
0100
1000
1000
1000
0001
0010
0010
0100
0100
0001
1000
0001
0001
0100
0010
,
0001
0100
0010
1000
0010
0001
1000
0010
0001
0100
1000
1000
0100
0001
0010
0010
,
0001
0000
0100
0000
1010
0000
0000
0000
0001
1000
0001
0100
0010
0010
0010
0001
0100
0010
0100
0100
1000
1000
1000
0100
0010
0010
0010
0001
0100
0010
0100
0100
,
1000
1000
1000
0100
0010
0010
0010
0001
0100
0010
0100
0100
0001
1000
0001
0100
0010
0010
0010
0001
1000
0010
1000
0100
0001
1000
0001
0100
0010
0010
0010
0001
,
0100
0010
0100
0100
0120
0000
0000
0000
0130
0000
0100
0000
1000
0000
0100
0000
0010
0000
0001
0000
2001
0000
0000
0000
3001
0000
0001
0000
0100
0000
0100
0001
,
0010
0010
0010
0100
1000
1000
1000
0100
0001
0010
0001
0001
0100
0010
0100
0100
0010
1000
0010
0100
0001
0010
0001
0001
0100
0010
0100
0100
0010
1000
0010
0100
,
1000
0010
1000
0000
0021
0000
0000
0000
0000
0000
0000
0000
0031
0000
0000
0000
0001
0000
0001
0000
0100
0000
0010
0000
1000
0000
0100
0000
0010
0000
1000
0000
,
0010
0001
0001
0010
0100
0100
0100
1000
0001
0001
0010
0010
0010
0100
1000
1000
,
0100
0001
0010
0010
0100
0100
0100
1000
1000
0001
0001
0010
0010
0100
0010
1000
,
0100
0001
0100
0010
0001
0100
0001
1000
0010
0001
1000
0010
0100
0100
0001
1000
,
1000
0001
0120
0000
0000
0000
0130
0000
0100
0000
0001
0000
0100
0001
1000
0010
,
0100
0100
0010
1000
0001
0001
0100
0010
0100
0100
0101
1000
0000
0001
0010
0010
,
1000
0100
0100
1000
0010
0001
0001
0010
0001
0100
1001
1000
0000
0001
0100
0010
,
0010
0100
0001
1000
1000
0001
0010
0010
0010
0100
0110
1000
0000
0001
1000
0010
,
0100
0100
0021
0000
0000
0000
0031
0000
0001
0000
1000
0000
0100
0001
0001
0010
,
1000
0100
0100
1000
0001
0001
0010
0010
0100
0100
0001
1000
0010
0001
0100
0010
,
0010
0100
0010
1000
0100
0001
1000
0010
1000
0100
0100
1000
0010
0001
1000
0010
,
0001
0100
0001
1000
0010
0001
0100
0010
0010
0100
1000
1000
0100
0001
0010
0010
,
1000
0100
0012
0000
0000
0000
0013
0000
0010
0000
1000
0001
0100
0010
0010
0100
,
0001
1000
0001
0001
0010
0010
0100
0100
1000
1000
0001
0001
0100
0010
1000
0100
,
0100
1000
0010
0001
0001
0010
0100
0100
0010
1000
1000
0001
0100
0010
0010
0100
,
0001
1000
0000
0000
2002
0000
0220
0000
3333
0000
2020
0000
3232
0303
2200
0000
,
0000
0011
3300
0000
0000
0000
0000
0000
0000
0000
0000
0000
0000
0000
0000
0000
0000
0000
0000
0000
0000
0000
0000
0000
0000
0000
0000
0000
0000
0000
0000
0000
;
